osu file format v14

[General]
AudioFilename: -ENDLESS REBIRTH SOUND HOLIC.mp3
AudioLeadIn: 1500
PreviewTime: -1
Countdown: 1
SampleSet: None
StackLeniency: 0.7
Mode: 3
LetterboxInBreaks: 1
WidescreenStoryboard: 0

[Editor]
DistanceSpacing: 0.6
BeatDivisor: 16
GridSize: 32
TimelineZoom: 1

[Metadata]
Title:Yuzhara Pack2
TitleUnicode:Yuzhara Pack2
Artist:Yuzhara
ArtistUnicode:Yuzhara
Creator:Yuzhara
Version:ENDLESS REBIRTH[Challenge]
Source:
Tags:
BeatmapID:806015
BeatmapSetID:359242

[Difficulty]
HPDrainRate:8
CircleSize:4
OverallDifficulty:8
ApproachRate:5
SliderMultiplier:1.4
SliderTickRate:1

[Events]
//Background and Video events
0,0,"blazing_flame_fujiwara_no_mokou_angry_magic_hd-wallpaper-1829905.jpg",0,0
//Break Periods
//Storyboard Layer 0 (Background)
//Storyboard Layer 1 (Fail)
//Storyboard Layer 2 (Pass)
//Storyboard Layer 3 (Foreground)
//Storyboard Sound Samples

[TimingPoints]
0,712.589073634204,4,1,0,0,1,0

[HitObjects]
448,192,356,128,0,1247:0:0:0:0:
64,192,1425,1,0,0:0:0:0:
192,192,1484,1,0,0:0:0:0:
320,192,1543,1,0,0:0:0:0:
64,192,1603,1,0,0:0:0:0:
192,192,1662,1,0,0:0:0:0:
448,192,1722,1,0,0:0:0:0:
320,192,1781,1,0,0:0:0:0:
192,192,1840,1,0,0:0:0:0:
64,192,1900,1,0,0:0:0:0:
448,192,1900,1,0,0:0:0:0:
320,192,1959,1,0,0:0:0:0:
192,192,2019,1,0,0:0:0:0:
192,192,2137,1,0,0:0:0:0:
64,192,2137,1,0,0:0:0:0:
448,192,2137,1,0,0:0:0:0:
320,192,2137,1,0,0:0:0:0:
320,192,2256,1,0,0:0:0:0:
448,192,2315,1,0,0:0:0:0:
64,192,2434,1,0,0:0:0:0:
192,192,2434,1,0,0:0:0:0:
320,192,2434,1,0,0:0:0:0:
448,192,2434,1,0,0:0:0:0:
64,192,2672,1,0,0:0:0:0:
192,192,2672,1,0,0:0:0:0:
320,192,2672,1,0,0:0:0:0:
448,192,2672,1,0,0:0:0:0:
64,192,2790,1,0,0:0:0:0:
448,192,2850,1,0,0:0:0:0:
320,192,2909,1,0,0:0:0:0:
192,192,2969,1,0,0:0:0:0:
448,192,3028,1,0,0:0:0:0:
64,192,3087,1,0,0:0:0:0:
192,192,3147,1,0,0:0:0:0:
320,192,3206,1,0,0:0:0:0:
448,192,3251,1,0,0:0:0:0:
64,192,3266,1,0,0:0:0:0:
192,192,3325,1,0,0:0:0:0:
64,192,3384,1,0,0:0:0:0:
448,192,3444,1,0,0:0:0:0:
320,192,3503,1,0,0:0:0:0:
192,192,3562,1,0,0:0:0:0:
64,192,3622,1,0,0:0:0:0:
448,192,3652,1,0,0:0:0:0:
320,192,3696,1,0,0:0:0:0:
64,192,3741,1,0,0:0:0:0:
192,192,3785,1,0,0:0:0:0:
448,192,3830,1,0,0:0:0:0:
320,192,3874,1,0,0:0:0:0:
64,192,3919,1,0,0:0:0:0:
192,192,3963,1,0,0:0:0:0:
320,192,4008,1,0,0:0:0:0:
448,192,4052,1,0,0:0:0:0:
64,192,4097,1,0,0:0:0:0:
192,192,4141,1,0,0:0:0:0:
448,192,4186,1,0,0:0:0:0:
320,192,4230,1,0,0:0:0:0:
64,192,4275,1,0,0:0:0:0:
192,192,4320,1,0,0:0:0:0:
320,192,4364,1,0,0:0:0:0:
448,192,4409,1,0,0:0:0:0:
64,192,4453,1,0,0:0:0:0:
192,192,4498,1,0,0:0:0:0:
320,192,4542,1,0,0:0:0:0:
448,192,4587,1,0,0:0:0:0:
192,192,4631,1,0,0:0:0:0:
64,192,4676,1,0,0:0:0:0:
320,192,4720,1,0,0:0:0:0:
448,192,4809,1,0,0:0:0:0:
320,192,4854,1,0,0:0:0:0:
64,192,4899,1,0,0:0:0:0:
64,192,4988,1,0,0:0:0:0:
192,192,4988,1,0,0:0:0:0:
320,192,4988,1,0,0:0:0:0:
448,192,4988,1,0,0:0:0:0:
448,192,5106,1,0,0:0:0:0:
192,192,5225,1,0,0:0:0:0:
64,192,5344,1,0,0:0:0:0:
192,192,5344,1,0,0:0:0:0:
320,192,5344,1,0,0:0:0:0:
448,192,5344,1,0,0:0:0:0:
64,192,5581,1,0,0:0:0:0:
192,192,5581,1,0,0:0:0:0:
320,192,5581,1,0,0:0:0:0:
448,192,5581,1,0,0:0:0:0:
448,192,5700,1,0,0:0:0:0:
64,192,5745,1,0,0:0:0:0:
192,192,5789,1,0,0:0:0:0:
320,192,5834,1,0,0:0:0:0:
64,192,5878,1,0,0:0:0:0:
448,192,5923,1,0,0:0:0:0:
192,192,5967,1,0,0:0:0:0:
64,192,6012,1,0,0:0:0:0:
320,192,6057,1,0,0:0:0:0:
192,192,6101,1,0,0:0:0:0:
64,192,6146,1,0,0:0:0:0:
448,192,6190,1,0,0:0:0:0:
320,192,6235,1,0,0:0:0:0:
192,192,6279,1,0,0:0:0:0:
64,192,6324,1,0,0:0:0:0:
448,192,6368,1,0,0:0:0:0:
320,192,6413,1,0,0:0:0:0:
192,192,6457,1,0,0:0:0:0:
320,192,6502,1,0,0:0:0:0:
448,192,6546,1,0,0:0:0:0:
64,192,6591,1,0,0:0:0:0:
192,192,6635,1,0,0:0:0:0:
320,192,6680,1,0,0:0:0:0:
448,192,6725,1,0,0:0:0:0:
